<?xml version="1.0" standalone="no"?>
<!DOCTYPE svg PUBLIC "-//W3C//DTD SVG 1.1//EN" "http://www.w3.org/Graphics/SVG/1.1/DTD/svg11.dtd" >
<svg xmlns="http://www.w3.org/2000/svg">
<metadata>Generated by IcoMoon</metadata>
<defs>
<font id="wpl-backend" horiz-adv-x="1024">
<font-face units-per-em="1024" ascent="960" descent="-64" />
<missing-glyph horiz-adv-x="1024" />
<glyph unicode="&#x20;" d="" horiz-adv-x="512" />
<glyph unicode="&#xe600;" d="M634.88 929.754c-35.746-34.888-384.98-401.572-384.98-401.572-19.074-18.64-28.562-43.014-28.562-67.386s9.492-48.744 28.562-67.386c0 0 349.236-366.68 384.98-401.486 35.746-34.888 100.052-37.282 138.188 0 38.054 37.198 41.048 89.104-0.086 134.684l-320.418 334.186 320.418 334.186c41.13 45.664 38.14 97.572 0.086 134.766-38.226 37.2-102.53 34.888-138.188 0z" />
<glyph unicode="&#xe601;" d="M389.12 929.754c35.746-34.888 384.98-401.572 384.98-401.572 19.154-18.64 28.648-43.014 28.648-67.386s-9.492-48.744-28.648-67.386c0 0-349.238-366.68-384.98-401.486-35.746-34.888-99.964-37.282-138.188 0-38.14 37.198-41.132 89.104 0 134.684l320.504 334.186-320.418 334.186c-41.132 45.664-38.14 97.572 0 134.766s102.444 34.888 138.104 0z" />
<glyph unicode="&#xe602;" d="M737.23 80.998c13.722-13.876 13.722-36.25 0-50.126s-35.89-13.876-49.614 0l-400.896 404.838c-13.722 13.876-13.722 36.302 0 50.126l400.896 404.89c13.722 13.876 35.89 13.876 49.614 0s13.722-36.25 0-50.126l-365.568-379.802 365.568-379.802z" />
<glyph unicode="&#xe603;" d="M286.704 80.998c-13.722-13.876-13.722-36.25 0-50.126s35.892-13.876 49.612 0l400.896 404.838c13.722 13.876 13.722 36.302 0 50.126l-400.896 404.89c-13.722 13.876-35.892 13.876-49.612 0s-13.722-36.25 0-50.126l365.568-379.802-365.568-379.802z" />
<glyph unicode="&#xe604;" d="M574.752 577.472v318.528l449.248-448-449.248-448v321.344c-228.32 0-453.664-39.744-574.752-228.352 12.608 343.712 269.76 425.536 574.752 484.48z" />
<glyph unicode="&#xe605;" d="M873.984 810.048c-199.872 199.936-524.096 199.936-724.032 0-200-199.936-200-524.16 0-724.032 199.936-200 524.16-200 724.032 0 200 199.872 200 524.096 0 724.032zM783.488 176.512c-149.952-150.016-393.088-150.016-543.040 0-149.952 149.952-149.952 393.088 0 543.040s393.088 149.952 543.040 0c150.016-150.016 150.016-393.088 0-543.040zM602.496 448l135.744-135.744-90.496-90.496-135.744 135.744-135.744-135.744-90.56 90.496 135.744 135.744-135.744 135.744 90.56 90.56 135.744-135.744 135.744 135.744 90.496-90.56z" />
<glyph unicode="&#xe606;" d="M626.784 447.968l195.072-195.072c12.672-12.672 12.672-33.248 0-45.92l-68.832-68.832c-12.672-12.672-33.216-12.672-45.92 0l-195.104 195.072-195.104-195.072c-12.672-12.672-33.216-12.672-45.888 0l-68.864 68.832c-12.672 12.672-12.672 33.216 0 45.92l195.104 195.072-195.104 195.104c-12.672 12.672-12.672 33.248 0 45.92l68.896 68.832c12.672 12.672 33.216 12.672 45.888 0l195.072-195.104 195.104 195.104c12.672 12.672 33.216 12.672 45.92 0l68.832-68.864c12.672-12.672 12.672-33.216 0-45.92l-195.072-195.072z" />
<glyph unicode="&#xe607;" d="M512 768c-188.544 0-341.334-152.832-341.334-341.332s152.788-341.334 341.334-341.334 341.334 152.832 341.334 341.334-152.788 341.334-341.334 341.334zM670.164 328.832c16.682-16.682 16.682-43.648 0-60.332-8.32-8.32-19.244-12.5-30.164-12.5s-21.846 4.182-30.164 12.5l-97.836 97.836-97.834-97.836c-8.32-8.32-19.242-12.5-30.166-12.5s-21.846 4.182-30.166 12.5c-16.682 16.682-16.682 43.648 0 60.332l97.834 97.836-97.834 97.836c-16.682 16.682-16.682 43.648 0 60.332s43.648 16.682 60.332 0l97.834-97.834 97.836 97.834c16.682 16.682 43.648 16.682 60.332 0s16.682-43.648 0-60.332l-97.836-97.836 97.836-97.836z" />
<glyph unicode="&#xe608;" d="M930.908 791.272h-46.544v-744.726c0-51.386-41.706-93.092-93.092-93.092h-558.544c-51.386 0-93.092 41.706-93.092 93.092v744.726h-46.546c-25.692 0-46.546 20.806-46.546 46.544s20.852 46.544 46.546 46.544h279.274c0 51.386 41.704 93.092 93.092 93.092h93.090c51.386 0 93.092-41.704 93.092-93.092h279.274c25.74 0 46.544-20.806 46.544-46.544s-20.806-46.544-46.544-46.544zM791.274 791.272h-558.544v-744.726h558.544v744.726zM418.908 698.182c25.692 0 46.546-20.806 46.546-46.544v-465.454c0-25.74-20.852-46.544-46.546-46.544s-46.546 20.806-46.546 46.544v465.454c0 25.74 20.852 46.544 46.546 46.544zM605.092 698.182c25.74 0 46.544-20.806 46.544-46.544v-465.454c0-25.74-20.806-46.544-46.544-46.544s-46.544 20.806-46.544 46.544v465.454c0 25.74 20.806 46.544 46.544 46.544z" />
<glyph unicode="&#xe609;" d="M0 71.68c119.040-73.6 257.302-114.346 393.814-114.346 60.138 0 119.040 6.186 176 21.334 39.254 11.094 70.186 43.286 70.186 85.334 0 25.366-11.094 48.426-28.8 64l7.466-0.002c47.146 0 85.334 38.186 85.334 85.334s-38.186 85.334-85.334 85.334h42.666c47.146 0 85.334 38.186 85.334 85.334s-38.186 85.334-85.334 85.334h277.334c47.146 0 85.334 38.186 85.334 85.334s-38.186 85.334-85.334 85.334l-486.634-0.004c-23.658 0-42.666 19.2-42.666 42.666 0 4.032 0.64 7.894 1.706 11.52l49.066 120.746c5.782 11.522 9.196 24.534 9.196 38.402 0 47.146-38.186 85.334-85.334 85.334-35.414 0-65.92-21.76-78.934-52.48-71.466-138.454-159.146-249.388-305.066-327.042v-487.466z" />
<glyph unicode="&#xe60a;" d="M906.666 746.666h-138.666v128c0 47.146-38.186 85.334-85.334 85.334h-341.332c-47.146 0-85.334-38.186-85.334-85.334v-128h-138.666c-29.44 0-53.334-23.892-53.334-53.332s23.894-53.334 53.334-53.334h32v-618.666c0-47.146 38.186-85.334 85.334-85.334h554.666c47.146 0 85.334 38.186 85.334 85.334l-0.002 618.666h32c29.44 0 53.334 23.894 53.334 53.334s-23.894 53.332-53.334 53.332zM661.334 746.666h-298.668v59.734c0 26.026 20.908 46.934 46.934 46.934h204.8c26.026 0 46.934-20.908 46.934-46.934v-59.734zM362.666 597.334v-512c0-23.466-19.2-42.666-42.666-42.666s-42.666 19.2-42.666 42.666v512c0 23.466 19.2 42.666 42.666 42.666s42.666-19.2 42.666-42.666zM554.666 597.334v-512c0-23.466-19.2-42.666-42.666-42.666s-42.666 19.2-42.666 42.666v512c0 23.466 19.2 42.666 42.666 42.666s42.666-19.2 42.666-42.666zM746.666 597.334v-512c0-23.466-19.2-42.666-42.666-42.666s-42.666 19.2-42.666 42.666v512c0 23.466 19.2 42.666 42.666 42.666s42.666-19.2 42.666-42.666z" />
<glyph unicode="&#xe60b;" d="M786.096 595.392v237.904l-160.432-0.112v-121.456l-113.824 81.744-511.84-368.736h98.272l413.024 300.72 161.056-115.232-0.016 166.176h67.232v-217.2l191.344-134.464h93.088zM250.096 191.52v124.128h124.128v-124.128h-124.128zM105.296 46.704v144.816h144.8v-144.816h-144.8zM633.776 393.696v-347.008h-62.064v450.448h124.128v-103.44h-62.064zM670.464 46.704v310.304h124.128v-186.192h124.112v-124.128h-248.24zM286.784 46.704v108.128h124.128v119.44l124.272-0.064-0.144-227.504h-248.256z" />
<glyph unicode="&#xe60c;" d="M938.667 704.057l-170.724 170.61-255.943-256.057-256.057 256.057-170.61-170.61 256.057-256.057-256.057-256.057 170.61-170.61 256.057 256.057 255.943-256.057 170.724 170.61-256.057 256.057z" />
<glyph unicode="&#xe60d;" d="M512 960c-282.795 0-512-229.205-512-512 0-282.852 229.205-512 512-512 282.852 0 512 229.148 512 512 0 282.795-229.148 512-512 512zM814.421 576.398l-352.882-359.538c-13.938-14.222-36.523-14.222-50.404 0l-201.557 205.483c-13.938 14.165-13.938 37.148 0 51.314l50.404 51.371c13.881 14.222 36.466 14.222 50.347 0l126.066-128.455 277.276 282.453c13.938 14.222 36.409 14.222 50.46 0l50.347-51.314c13.881-14.108 13.881-37.148-0.057-51.314z" />
<glyph unicode="&#xe60e;" d="M885.76 666.567c-18.204 29.924-40.562 59.221-67.812 86.471-27.705 27.307-57.515 49.892-88.064 67.982l53.532 53.646c0 0 77.596 0 116.452-38.798 38.798-38.741 38.798-116.338 38.798-116.338l-52.907-52.964zM434.46 215.211h-155.25v155.193l18.66 18.716c31.573-14.905 62.919-35.954 91.079-64.114 28.274-28.217 49.152-59.62 64.114-91.079l-18.603-18.716zM840.818 621.796l-343.040-343.040c-18.034 29.867-40.448 59.278-67.755 86.414-27.705 27.364-57.515 49.948-88.007 68.039l343.78 343.723c31.573-14.848 62.862-35.84 91.022-64.057 28.274-28.217 49.266-59.563 64-91.079zM201.785 758.329v-620.772h620.544v271.644l116.338 117.874v-428.089c0-43.065-34.645-77.596-77.596-77.596h-698.197c-42.78 0-77.54 34.532-77.54 77.596v698.027c0 42.894 34.759 77.653 77.54 77.653h427.008l-116.338-116.338h-271.758z" />
<glyph unicode="&#xe60f;" d="M661.732 62.35c-0.455-0.114-35.84-11.89-66.56-11.89-16.953 0-23.836 3.584-25.941 5.177-10.695 7.396-30.72 21.504 3.47 89.486l64 127.659c38.002 75.662 43.577 149.106 15.644 206.336-22.699 46.99-66.446 79.189-122.823 90.681-20.309 4.153-40.96 6.201-61.383 6.201-118.329 0-197.973-69.12-201.33-72.078-11.378-10.069-14.165-26.852-6.542-39.993 7.737-13.198 23.495-19.228 38.116-14.279 0.284 0.171 35.783 12.004 66.56 12.004 16.782 0 23.609-3.527 25.714-5.006 10.752-7.509 30.834-21.732-3.243-89.771l-64-127.659c-38.059-75.89-43.634-149.106-15.758-206.336 22.812-46.99 66.503-79.132 122.994-90.681 20.025-3.982 40.619-6.201 60.985-6.201 118.443 0 198.144 69.12 201.5 72.135 11.492 10.012 14.108 26.908 6.542 39.993-7.68 13.084-23.666 19.001-37.945 14.222zM768.057 799.972c0-88.381-71.647-160.028-160.028-160.028s-160.028 71.647-160.028 160.028c0 88.381 71.647 160.028 160.028 160.028s160.028-71.647 160.028-160.028z" />
<glyph unicode="&#xe610;" d="M448 576h128v192h128l-192 192-192-192h128v-192zM576 320h-128v-192h-128l192-192 192 192h-128v192zM1024 448l-192 192v-128h-192v-128h192v-128l192 192zM384 512h-192v128l-192-192 192-192v128h192v128z" />
<glyph unicode="&#xe611;" d="M353.508 960l-211.285-204.8 316.928-307.2-316.928-307.2 211.285-204.8 528.27 512z" />
<glyph unicode="&#xe612;" d="M933.205 624.868c-39.993 10.524-134.030 10.354-271.531 13.995 6.428 30.037 8.021 57.116 8.021 105.188-0.057 114.859-83.684 215.95-157.696 215.95-52.224 0-95.346-42.667-95.972-95.232-0.683-64.455-20.594-175.787-128-232.22-7.908-4.153-30.379-15.36-33.678-16.668l1.65-1.479c-16.839 14.507-40.107 25.6-64 25.6h-95.972c-52.964 0-96.028-43.065-96.028-96.028v-512c0-52.907 43.065-95.972 96.028-95.972h96.028c38.059 0 69.916 22.983 85.39 55.239 0.398-0.114 1.081-0.284 1.479-0.341 2.105-0.626 4.608-1.195 7.623-1.991 0.626-0.114 0.91-0.171 1.479-0.455 18.432-4.494 53.931-13.028 129.764-30.436 16.213-3.755 102.116-22.016 191.090-22.016h174.933c53.305 0 91.762 20.423 114.574 61.724 0.398 0.626 7.737 15.019 13.71 34.361 4.551 14.677 6.144 35.271 0.796 56.263 34.361 23.666 45.397 59.392 52.679 82.603 12.060 38.116 8.363 66.788 0.057 87.211 19.285 18.204 35.726 46.080 42.667 88.576 4.38 26.34-0.284 53.362-12.402 75.89 18.091 20.366 26.34 45.966 27.25 69.689l0.455 6.656c0.228 4.21 0.398 6.884 0.398 16.043 0 40.448-27.989 91.989-90.795 109.852zM224.028 31.972c0-17.749-14.336-32.028-32.028-32.028h-95.972c-17.692 0-32.028 14.279-32.028 32.028v512c0 17.692 14.336 32.028 32.028 32.028h96.028c17.692 0 32.028-14.336 32.028-32.028v-512zM959.204 494.876c-0.512-15.815-7.225-46.876-63.204-46.876-48.014 0-64 0-64 0-8.875 0-15.986-7.168-15.986-15.986s7.111-15.986 15.986-15.986c0 0 13.995 0 62.009 0s54.272-39.822 51.2-58.994c-3.982-23.893-15.189-69.006-69.234-69.006-53.988 0-76.004 0-76.004 0-8.875 0-15.986-7.111-15.986-15.986 0-8.818 7.111-15.986 15.986-15.986 0 0 38.002 0 62.976 0 53.988 0 49.209-41.188 41.472-65.764-10.183-32.256-16.384-62.236-84.423-62.236-22.983 0-52.167 0-52.167 0-8.875 0-15.986-7.111-15.986-15.986 0-8.818 7.111-15.986 15.986-15.986 0 0 22.187 0 50.176 0 34.987 0 36.693-33.109 32.996-44.999-3.982-13.028-8.761-22.642-8.932-23.040-9.728-17.522-25.202-27.932-58.197-27.932h-174.933c-87.893 0-175.047 19.968-177.323 20.366-132.949 30.663-139.947 32.996-148.196 35.442 0 0-27.136 4.494-27.136 28.16l-0.284 441.913c0 15.019 9.557 28.558 25.372 33.337 1.991 0.796 4.665 1.593 6.656 2.446 146.148 60.473 190.692 193.195 192 302.251 0.114 15.303 11.947 31.972 31.972 31.972 33.849 0 93.639-67.925 93.639-151.95 0-75.89-3.072-88.974-29.639-168.050 320 0 317.781-4.608 345.998-12.004 34.987-10.012 38.002-39.026 38.002-48.981 0-11.036-0.284-9.387-0.796-20.139zM143.986 128c-26.51 0-48.014-21.561-48.014-48.014s21.504-48.014 48.014-48.014 48.014 21.561 48.014 48.014-21.504 48.014-48.014 48.014zM143.986 64c-8.818 0-15.986 7.168-15.986 15.986s7.168 15.986 15.986 15.986 15.986-7.168 15.986-15.986-7.111-15.986-15.986-15.986z" />
<glyph unicode="&#xe613;" d="M128 256h256v64h-256v-64zM448 448h-320v-64h320v64zM512 576h-384v-64h384v64zM768 508.757v259.243l-192 192h-576v-1024h736.028c159.004 0 287.972 128.967 287.972 287.972 0 148.139-112.242 268.686-256 284.786zM576 876.43l112.014-108.43h-112.014v108.43zM64 0v896h448v-192h192v-195.243c-143.758-16.1-256-136.647-256-284.786 0-91.079 43.065-171.236 108.999-224.028h-492.999zM736.028 0c-123.733 0-224.028 100.295-224.028 223.972s100.295 224.028 224.028 224.028 224.028-100.295 224.028-224.028-100.352-223.972-224.028-223.972zM811.349 366.194l-23.097-23.097c13.141-7.851 25.998-17.579 37.831-29.412 11.947-11.719 21.561-24.348 29.298-37.262l22.869 22.869c0 0 0 33.394-16.725 50.176-16.782 16.725-50.176 16.725-50.176 16.725zM601.828 156.672l-8.078-8.021v-66.901h66.901l8.021 8.078c-6.315 13.483-15.417 27.136-27.534 39.253-12.117 12.174-25.828 21.276-39.31 27.591zM769.138 324.096l-148.309-148.309c13.198-7.794 26.112-17.522 38.002-29.355 11.776-11.662 21.447-24.462 29.298-37.319l148.082 148.025c-6.485 13.653-15.474 27.193-27.591 39.367-12.345 12.117-25.828 21.106-39.481 27.591z" />
<glyph unicode="&#xe614;" d="M1024 594.318h-365.682v365.682h-292.58v-365.682h-365.739v-292.523h365.739v-365.796h292.58v365.796h365.682z" />
<glyph unicode="&#xe615;" d="M796.444 732.444v-682.667h-568.889v682.667h-113.778v-796.444h796.444v796.444h-113.778zM455.111 334.222h113.778v398.222h113.778l-170.667 227.556-170.667-227.556h113.778v-398.222z" />
<glyph unicode="&#xe616;" d="M881.778 755.2l-211.342 204.8-528.213-512 528.213-512 211.342 204.8-316.928 307.2z" />
<glyph unicode="&#xe617;" d="M0 960l1024-1024v1024h-1024zM931.044 766.18l-256.569-253.838c-10.126-9.956-26.567-9.956-36.693 0l-36.693 36.352c0 0 0 0 0 0l-109.966 108.772c-10.126 10.012-10.126 26.226 0 36.238l36.75 36.238c10.126 10.012 26.453 10.012 36.636 0l91.591-90.624 201.671 199.396c10.126 10.012 26.567 10.012 36.75 0l36.58-36.295c10.126-9.956 10.126-26.226-0.057-36.238z" />
<glyph unicode="&#xe618;" d="M448 960h-448v-448h128v320h320v128zM896 384v-320h-320v-128h448v448h-128zM832 256l-512 512-128-128 512-512 128 128z" />
<glyph unicode="&#xe619;" d="M170.667-37.945c0-14.45 11.15-26.055 24.917-26.055h632.832c13.824 0 24.917 11.605 24.917 26.055v713.5h-682.667v-713.5zM652.231 531.968h93.525v-437.476h-93.525v437.476zM465.237 531.968h93.525v-437.476h-93.525v437.476zM278.244 531.968h93.525v-437.476h-93.525v437.476zM731.079 859.25v78.791c0 12.117-11.719 21.959-26.055 21.959h-386.048c-14.336 0-25.998-9.842-25.998-21.959v-106.268h-181.646c-14.336 0-25.998-9.785-25.998-21.902v-55.524c0-12.117 11.662-21.902 25.998-21.902h801.28c14.45 0 26.055 9.785 26.055 21.902v55.524c0 12.060-11.605 21.902-26.055 21.902h-181.532v27.477zM633.685 836.267h-243.257v41.472h243.2v-41.472z" />
<glyph unicode="&#xe61a;" d="M1024 380.985c0 9.159-0.171 11.833-0.398 15.986l-0.455 6.656c-0.967 23.723-9.159 49.266-27.25 69.689 12.117 22.528 16.782 49.55 12.402 75.89-6.94 42.496-23.381 70.315-42.667 88.576 8.306 20.423 12.004 49.095-0.057 87.211-7.282 23.211-18.318 58.937-52.679 82.603 5.404 20.992 3.755 41.586-0.796 56.263-5.973 19.399-13.312 33.792-13.71 34.361-22.756 41.358-61.269 61.781-114.574 61.781h-174.933c-88.974 0-174.876-18.261-191.090-22.016-75.833-17.351-111.332-25.941-129.764-30.436-0.626-0.284-0.91-0.341-1.536-0.455-3.015-0.796-5.518-1.365-7.623-1.991-0.455-0.057-1.138-0.228-1.479-0.341-15.474 32.256-47.332 55.239-85.39 55.239h-95.972c-52.964 0-96.028-43.065-96.028-96.028v-512c0-52.964 43.065-96.028 96.028-96.028h96.028c23.893 0 47.161 11.093 64 25.6l-1.65-1.479c3.3-1.308 25.771-12.516 33.678-16.668 107.406-56.434 127.317-167.765 128-232.22 0.569-52.508 43.691-95.175 95.915-95.175 74.012 0 157.639 101.092 157.639 215.95 0 48.071-1.536 75.093-8.021 105.188 137.5 3.641 231.538 3.527 271.531 13.995 62.862 17.863 90.852 69.404 90.852 109.852zM224.028 351.972c0-17.692-14.336-32.028-32.028-32.028h-95.972c-17.692 0-32.028 14.336-32.028 32.028v512c0 17.749 14.336 32.028 32.028 32.028h96.028c17.692 0 32.028-14.279 32.028-32.028v-512zM960 380.985c0-10.012-3.015-39.026-38.002-48.981-28.217-7.396-25.998-12.004-345.998-12.004 26.624-79.076 29.639-92.16 29.639-168.050 0-84.082-59.847-151.95-93.639-151.95-20.025 0-31.858 16.668-32.028 32.028-1.308 108.999-45.796 241.721-191.943 302.194-1.934 0.853-4.608 1.65-6.599 2.446-15.872 4.779-25.429 18.318-25.429 33.337l0.228 442.027c0 23.666 27.136 28.16 27.136 28.16 8.306 2.446 15.303 4.779 148.196 35.442 2.276 0.455 89.429 20.366 177.323 20.366h174.933c32.996 0 48.526-10.468 58.197-27.932 0.171-0.398 4.949-10.069 8.932-23.040 3.641-11.89 1.991-44.999-32.996-44.999-27.989 0-50.176 0-50.176 0-8.875 0-15.986-7.168-15.986-15.986 0-8.875 7.111-15.986 15.986-15.986 0 0 29.184 0 52.167 0 68.039 0 74.297-29.924 84.423-62.236 7.794-24.633 12.572-65.764-41.472-65.764-24.974 0-62.976 0-62.976 0-8.875 0-15.986-7.168-15.986-15.986 0-8.875 7.111-15.986 15.986-15.986 0 0 22.016 0 76.004 0 54.044 0 65.195-45.113 69.234-69.006 3.072-19.172-3.243-58.994-51.2-58.994s-62.009 0-62.009 0c-8.875 0-15.986-7.168-15.986-15.986s7.168-16.1 16.043-16.1c0 0 15.986 0 64 0 55.979 0 62.692-31.061 63.204-46.876 0.512-10.752 0.796-9.102 0.796-20.139zM192 816.014c0 26.453-21.504 48.014-48.014 48.014s-47.957-21.561-47.957-48.014 21.504-48.014 48.014-48.014 47.957 21.561 47.957 48.014zM160.028 816.014c0-8.818-7.168-15.986-15.986-15.986s-16.043 7.111-16.043 15.986 7.168 15.986 15.986 15.986 16.043-7.168 16.043-15.986z" />
<glyph unicode="&#xe61b;" d="M120.491 598.585h-120.491v-120.491h120.491v120.491zM120.491 417.906h-120.491v-120.491h120.491v120.491zM903.566 478.094h120.434v120.491h-120.434v-120.491zM903.566 297.415h120.434v120.491h-120.434v-120.491zM542.094-64h120.491v120.434h-120.491v-120.434zM361.415-64h120.491v120.434h-120.491v-120.434zM361.415 839.509h120.491v120.491h-120.491v-120.491zM542.094 839.509h120.491v120.491h-120.491v-120.491zM0 658.83h120.491v180.679h180.679v120.491h-301.17v-301.17zM722.83 960v-120.491h180.736v-180.679h120.434v301.17h-301.17zM120.491 237.17h-120.491v-301.17h301.17v120.434h-180.679v180.736zM903.566 56.434h-180.736v-120.434h301.17v301.17h-120.434v-180.736z" />
<glyph unicode="&#xe61c;" d="M193.536 587.036v-651.036h644.437v651.036h-644.437zM377.685 67.527h-92.103v431.787h92.103v-431.787zM561.778 67.527h-92.103v431.787h92.103v-431.787zM745.87 67.527h-92.046v431.787h92.046v-431.787zM699.676 761.515l38.571 126.805-264.761 71.68-38.628-126.635-176.583 47.9-38.684-126.578 617.984-167.652 38.684 126.635-176.583 47.844zM655.417 773.461l-176.071 49.209 25.429 83.115 176.128-49.038-25.486-83.285z" />
<glyph unicode="&#xe61d;" d="M871.424 392.761v383.317h-423.652l135.566-154.624h152.576v-228.693h-152.576l220.331-257.65 220.331 257.65h-152.576zM327.68 302.023v223.744h163.84l-245.76 292.011-245.76-292.011h163.84v-390.656h453.404l-125.724 166.912h-163.84z" />
<glyph unicode="&#xe61e;" d="M120.491 598.585h-120.491v-120.491h120.491v120.491zM120.491 417.906h-120.491v-120.491h120.491v120.491zM903.566 478.094h120.434v120.491h-120.434v-120.491zM903.566 297.415h120.434v120.491h-120.434v-120.491zM542.094-64h120.491v120.434h-120.491v-120.434zM361.415-64h120.491v120.434h-120.491v-120.434zM361.415 839.509h120.491v120.491h-120.491v-120.491zM542.094 839.509h120.491v120.491h-120.491v-120.491zM0 658.83h120.491v180.679h180.679v120.491h-301.17v-301.17zM722.83 960v-120.491h180.736v-180.679h120.434v301.17h-301.17zM120.491 237.17h-120.491v-301.17h301.17v120.434h-180.679v180.736zM903.566 56.434h-180.736v-120.434h301.17v301.17h-120.434v-180.736zM739.556 584.533l-91.022 91.022-136.533-136.533-136.533 136.533-91.022-91.022 136.533-136.533-136.533-136.533 91.022-91.022 136.533 136.533 136.533-136.533 91.022 91.022-136.533 136.533z" />
<glyph unicode="&#xe61f;" d="M918.357 527.132c-17.522 2.56-36.124 18.261-41.472 34.987l-25.941 63.204c-8.249 15.588-6.201 39.936 4.267 53.988l42.155 56.206c10.581 14.108 9.671 36.466-1.991 49.607l-46.251 46.308c-13.198 11.605-35.556 12.516-49.664 1.934l-56.206-42.155c-14.108-10.581-38.343-12.516-53.874-4.324l-63.147 25.998c-16.839 5.404-32.597 23.95-34.93 41.472l-10.069 69.518c-2.446 17.465-18.716 33.223-36.295 35.1 0 0-10.809 1.138-32.825 1.138-21.959 0-32.825-1.138-32.825-1.138-17.522-1.877-33.849-17.636-36.352-35.1l-10.069-69.518c-2.503-17.465-18.261-36.068-34.987-41.415l-63.204-25.998c-15.531-8.135-39.822-6.258-53.874 4.324l-56.32 42.212c-14.108 10.581-36.466 9.671-49.607-1.934l-46.251-46.364c-11.605-13.198-12.572-35.499-1.934-49.607l42.155-56.263c10.638-14.108 12.516-38.343 4.324-53.931l-26.055-63.26c-5.348-16.782-24.007-32.484-41.472-34.987l-69.518-9.842c-17.408-2.503-33.166-18.83-34.987-36.409 0 0-1.138-10.866-1.138-32.882s1.138-32.825 1.138-32.825c1.82-17.636 17.636-33.849 34.987-36.409l69.575-9.899c17.408-2.56 36.124-18.204 41.472-34.987l26.055-63.204c8.192-15.531 6.201-39.879-4.324-53.874l-42.155-56.149c-10.638-14.108-13.141-33.394-5.689-42.439 7.452-9.216 28.9-32.028 29.013-32.199 0 0 7.225-6.599 15.986-14.677 8.647-8.078 44.373-19.115 58.482-8.59l56.206 42.325c14.108 10.468 38.286 12.459 53.931 4.153l63.147-25.998c16.782-5.348 32.54-24.007 34.93-41.472l10.012-69.575c2.446-17.465 18.773-33.223 36.409-35.1 0 0 10.809-1.138 32.768-1.138s32.882 1.138 32.882 1.138c17.465 1.877 33.849 17.749 36.295 35.1l10.012 69.575c2.446 17.522 18.148 36.181 34.93 41.472l63.147 26.112c15.531 8.192 39.879 6.144 53.874-4.267l56.206-42.325c14.165-10.524 36.58-9.671 49.721 1.934l46.194 46.308c11.662 13.141 12.572 35.556 1.991 49.664l-42.212 56.149c-10.468 13.995-12.459 38.343-4.21 53.874l25.998 63.204c5.404 16.782 24.007 32.54 41.472 34.987l69.461 9.899c17.579 2.56 33.223 18.83 35.1 36.409 0 0 1.195 10.809 1.195 32.825s-1.195 32.825-1.195 32.825c-1.877 17.522-17.636 33.963-35.1 36.466l-69.348 9.842zM512 320c-70.713 0-128.057 57.344-128.057 128 0 70.713 57.344 128.057 128.057 128.057s128.057-57.344 128.057-128.057c0-70.656-57.401-128-128.057-128z" />
<glyph unicode="&#xe620;" d="M979.456 601.828l-281.884 26.51c-17.863 1.593-33.223 12.857-40.505 29.696l-101.092 243.371c-16.043 40.164-73.5 40.164-89.714 0l-100.124-243.371c-6.428-16.839-22.585-28.103-40.391-29.696l-282.055-26.51c-41.984-4.039-58.937-56.263-27.42-84.309l212.537-185.572c13.71-12.004 19.342-29.639 15.36-47.388l-63.886-260.21c-9.614-41.017 34.816-74.752 71.908-53.020l235.179 137.387c15.417 8.704 33.963 8.704 49.266 0l235.122-137.387c37.035-21.732 81.636 11.207 71.964 53.020l-63.033 260.21c-3.982 17.806 1.65 35.385 15.417 47.388l212.423 185.572c30.834 28.046 12.971 80.27-29.070 84.309z" />
<glyph unicode="&#xe621;" d="M862.265 846.222l-485.035-477.753-215.609 212.252-161.621-159.289 377.23-371.655 646.77 637.156z" />
<glyph unicode="&#xe622;" d="M512 960c-282.795 0-512-229.205-512-512s229.205-512 512-512 512 229.205 512 512-229.205 512-512 512zM563.143 144.555h-102.343v101.205h102.4v-101.205zM563.143 346.908h-102.343v410.852h102.4v-410.852z" />
<glyph unicode="&#xe623;" d="M665.543 751.388c-25.543 53.76-59.164 151.723-153.543 151.723-94.436 0-123.221-96.37-153.6-151.723-30.379-55.239-358.4-657.465-358.4-657.465 0-71.566 45.852-101.035 102.4-101.035h819.143c56.604 0 102.457 45.227 102.457 101.035 0 0-332.8 603.762-358.457 657.465zM563.143 144.555h-102.343v101.205h102.4v-101.205zM563.143 346.908h-102.343v353.963h102.4v-353.963z" />
<glyph unicode="&#xe624;" d="M786.096 595.392v237.904l-160.432-0.112v-121.456l-113.824 81.744-511.84-368.736h98.272l413.024 300.72 161.056-115.232-0.016 166.176h67.232v-217.2l191.344-134.464h93.088z" />
<glyph unicode="&#xe625;" d="M250.096 191.52v124.128h124.128v-124.128h-124.128zM105.296 46.704v144.816h144.8v-144.816h-144.8z" />
<glyph unicode="&#xe626;" d="M633.776 393.696v-347.008h-62.064v450.448h124.128v-103.44h-62.064z" />
<glyph unicode="&#xe627;" d="M670.464 46.704v310.304h124.128v-186.192h124.112v-124.128h-248.24z" />
<glyph unicode="&#xe628;" d="M286.784 46.704v108.128h124.128v119.44l124.272-0.064-0.144-227.504h-248.256z" />
<glyph unicode="&#xe629;" d="M879.002 222.704c13.876-13.722 36.25-13.722 50.126 0s13.876 35.892 0 49.612l-404.838 400.896c-13.876 13.722-36.302 13.722-50.126 0l-404.89-400.896c-13.876-13.722-13.876-35.892 0-49.612s36.25-13.722 50.126 0l379.802 365.568 379.802-365.568z" />
<glyph unicode="&#xe62a;" d="M953.408 359.488c31.552 0 56.896-25.28 56.896-56.896v-309.76c0-31.616-25.344-56.896-56.896-56.896h-880.704c-31.616 0-59.008 25.28-59.008 56.896v309.76c0 31.616 27.392 56.896 59.008 56.896s56.896-25.28 56.896-56.896v-250.752h766.912v250.752c0 31.68 25.28 56.896 56.896 56.896zM321.344 631.296c-23.168-23.168-56.896-23.168-80.064 0s-23.168 56.896 0 80.064l231.808 231.744c10.496 10.56 25.216 16.896 40 16.896s29.504-6.336 40-16.896l231.808-231.744c23.104-23.168 23.104-56.896 0-80.064-10.56-10.56-25.344-16.832-40.064-16.832s-31.552 6.336-42.176 16.832l-132.736 132.736v-493.056c0-31.616-25.28-56.896-56.896-56.896s-56.896 25.28-56.896 56.896v493.056l-134.784-132.736z" />
<glyph unicode="&#xe62b;" d="M953.408 359.488c31.552 0 56.896-25.28 56.896-56.896v-309.76c0-31.616-25.344-56.896-56.896-56.896h-880.704c-31.616 0-59.008 25.28-59.008 56.896v309.76c0 31.616 27.392 56.896 59.008 56.896s56.896-25.28 56.896-56.896v-250.752h766.912v250.752c0 31.68 25.28 56.896 56.896 56.896zM473.024 230.976l-231.744 231.744c-23.168 23.168-23.168 56.896 0 80.064s56.896 23.168 80.064 0l134.848-132.736v493.056c-0.064 31.616 25.216 56.896 56.896 56.896 31.552 0 56.832-25.28 56.832-56.896v-493.056l132.736 132.736c23.168 23.168 59.008 23.168 82.176 0 23.104-23.168 23.104-56.896 0-80.064l-231.808-231.744c-10.56-10.56-25.28-16.896-40-16.896s-29.44 6.336-40 16.896z" />
<glyph unicode="&#xe62c;" d="M42.667 856v-858.667c0-33.856 27.435-61.333 61.333-61.333h61.333v981.333h-61.333c-33.899 0-61.333-27.499-61.333-61.333zM840 917.333h-613.333v-981.333h613.333c33.92 0 61.333 27.477 61.333 61.333v858.667c0 33.835-27.413 61.333-61.333 61.333zM560.64 680.981c51.264 0 92.8-41.621 92.8-92.843 0-51.264-41.643-92.843-92.8-92.843-51.264 0-92.843 41.579-92.843 92.843s41.579 92.843 92.843 92.843zM410.667 254.549c0 112.341 68.032 203.627 151.893 203.627 83.797 0 151.893-91.285 151.893-203.627-0.064-112.512-303.787-112.512-303.787 0zM962.667 856h61.333v-184h-61.333v184zM962.667 610.667h61.333v-184h-61.333v184zM962.667 365.333h61.333v-184h-61.333v184zM21.333 877.333v-858.667c0-33.856 27.435-61.333 61.333-61.333h61.333v981.333h-61.333c-33.899 0-61.333-27.499-61.333-61.333zM818.667 938.667h-613.333v-981.333h613.333c33.92 0 61.333 27.477 61.333 61.333v858.667c0 33.835-27.413 61.333-61.333 61.333zM539.307 702.315c51.264 0 92.8-41.621 92.8-92.843 0-51.264-41.643-92.843-92.8-92.843-51.264 0-92.843 41.579-92.843 92.843s41.579 92.843 92.843 92.843zM389.333 275.883c0 112.341 68.032 203.627 151.893 203.627 83.797 0 151.893-91.285 151.893-203.627-0.064-112.512-303.787-112.512-303.787 0zM941.333 877.333h61.333v-184h-61.333v184zM941.333 632h61.333v-184h-61.333v184zM941.333 386.667h61.333v-184h-61.333v184z" />
<glyph unicode="&#xe62d;" d="M209.344 92.672v93.995h62.677l-125.333 156.672-125.355-156.672h62.677c0 0 0-62.357 0-93.995 0-156.011 156.672-156.672 156.672-156.672h125.333c0 0 0 20.373 0 31.339-140.587 0-156.672 125.333-156.672 125.333zM814.208 123.989h-291.541v62.677l-156.672-125.333 156.672-125.333v62.677c0 0 249.301 0 282.005 0 178.453 0 188.011 156.672 188.011 156.672v125.333c0 0-20.011 0-31.339 0 0-140.587-147.136-156.693-147.136-156.693zM836.011 781.995v-93.995h-62.677l125.333-156.672 125.333 156.672h-62.677c0 0 0 62.357 0 93.995 0.021 156.011-156.651 156.672-156.651 156.672h-125.333c0 0 0-20.373 0-31.339 140.565 0 156.672-125.333 156.672-125.333zM231.125 750.656h260.203v-62.677l156.672 125.333-156.672 125.355v-62.677c0 0-217.963 0-250.667 0-178.453 0-188.011-156.672-188.011-156.672v-125.333c0 0 20.011 0 31.339 0 0.021 140.587 147.136 156.672 147.136 156.672zM188.011 114.005v93.995h62.677l-125.333 156.672-125.355-156.672h62.677c0 0 0-62.357 0-93.995 0-156.011 156.672-156.672 156.672-156.672h125.333c0 0 0 20.373 0 31.339-140.587 0-156.672 125.333-156.672 125.333zM792.875 145.323h-291.541v62.677l-156.672-125.333 156.672-125.333v62.677c0 0 249.301 0 282.005 0 178.453 0 188.011 156.672 188.011 156.672v125.333c0 0-20.011 0-31.339 0 0-140.587-147.136-156.693-147.136-156.693zM814.677 803.328v-93.995h-62.677l125.333-156.672 125.333 156.672h-62.677c0 0 0 62.357 0 93.995 0.021 156.011-156.651 156.672-156.651 156.672h-125.333c0 0 0-20.373 0-31.339 140.565 0 156.672-125.333 156.672-125.333zM209.792 771.989h260.203v-62.677l156.672 125.333-156.672 125.355v-62.677c0 0-217.963 0-250.667 0-178.453 0-188.011-156.672-188.011-156.672v-125.333c0 0 20.011 0 31.339 0 0.021 140.587 147.136 156.672 147.136 156.672zM271.253 511.189c24.469 0 32.384-15.189 32.384-50.325h54.293c0 35.157-5.611 86.165-83.285 86.165-81.408 0-91.605-52.011-91.605-125.355 0-73.237 10.219-125.312 91.605-125.312 71.232 0 85.632 44.885 85.632 96.981h-54.315c0-52.075-14.4-61.205-34.005-61.205-23.381 0-34.688 13.163-34.688 86.165-0.021 68.203 6.443 92.885 33.984 92.885v0zM249.92 532.523c24.469 0 32.384-15.189 32.384-50.325h54.293c0 35.157-5.611 86.165-83.285 86.165-81.408 0-91.605-52.011-91.605-125.355 0-73.237 10.219-125.312 91.605-125.312 71.232 0 85.632 44.885 85.632 96.981h-54.315c0-52.075-14.4-61.205-34.005-61.205-23.381 0-34.688 13.163-34.688 86.165-0.021 68.203 6.443 92.885 33.984 92.885v0zM840.981 303.253v241.28h-80.299l-38.848-170.304h-0.725l-38.443 170.304h-80.661v-241.28h49.707v192.619h0.853l47.787-192.619h42.304l47.723 192.619h0.853v-192.619zM819.648 324.587v241.28h-80.299l-38.848-170.304h-0.725l-38.443 170.304h-80.661v-241.28h49.707v192.619h0.853l47.787-192.619h42.304l47.723 192.619h0.853v-192.619zM561.515 348.544c-0.704 50.987-6.4 69.205-43.285 73.621v0.661c30.507 5.781 44.8 27.435 44.8 59.52 0 41.237-27.115 62.187-71.573 62.187h-100.267v-241.301h54.272v102.101h29.035c21.867 0 31.339-11.52 32.021-30.421l1.536-46.336c0.405-9.408 1.451-18.539 6.72-25.344h58.88v2.048c-10.197 4.757-11.605 17.92-12.139 43.264zM468.011 439.083h-22.571v69.653h25.643c24.469 0 37.739-11.136 37.739-33.472 0-26.027-14.763-36.181-40.811-36.181zM540.181 369.877c-0.704 50.987-6.4 69.205-43.285 73.621v0.661c30.507 5.781 44.8 27.435 44.8 59.52 0 41.237-27.115 62.187-71.573 62.187h-100.267v-241.301h54.272v102.101h29.035c21.867 0 31.339-11.52 32.021-30.421l1.536-46.336c0.405-9.408 1.451-18.539 6.72-25.344h58.88v2.048c-10.197 4.757-11.605 17.92-12.139 43.264zM446.677 460.416h-22.571v69.653h25.643c24.469 0 37.739-11.136 37.739-33.472 0-26.027-14.763-36.181-40.811-36.181z" />
<glyph unicode="&#xe62e;" d="M836.011 423.211c-17.621 4.075-35.968 6.293-54.827 6.293-5.269 0-10.475-0.213-15.659-0.533-120.32-7.659-216.747-102.912-226.304-222.699-0.512-6.464-0.853-12.949-0.853-19.584 0-20.245 2.517-39.915 7.211-58.752 26.261-105.707 121.771-184.085 235.627-184.085 134.059-0.021 242.795 108.693 242.795 242.816 0 115.243-80.32 211.669-187.989 236.544zM781.163 26.091c-88.683 0-160.576 71.915-160.576 160.576 0 88.704 71.893 160.576 160.576 160.576s160.576-71.872 160.576-160.576c0.021-88.661-71.893-160.576-160.576-160.576zM757.675 61.333c82.261 0 148.843 66.581 148.843 148.843h-148.843v-148.843zM225.003 754.603c15.104 0 27.413 12.288 27.413 27.413v129.237c0 15.125-12.309 27.413-27.413 27.413h-23.509c-15.125 0-27.413-12.288-27.413-27.413v-129.28c0-15.104 12.288-27.413 27.413-27.413h23.509zM655.829 754.603c15.125 0 27.413 12.288 27.413 27.413v129.237c0 15.125-12.288 27.413-27.413 27.413h-23.509c-15.125 0-27.413-12.288-27.413-27.413v-129.28c0-15.104 12.288-27.413 27.413-27.413h23.509zM489.344 127.915c-3.84 19.008-5.845 38.677-5.845 58.752 0 6.592 0.299 13.12 0.704 19.584h-345.365c-25.963 0-46.997 21.035-46.997 46.997v376.021h673.664v-145.344c5.184 0.277 10.411 0.427 15.659 0.427 18.731 0 37.035-1.835 54.827-5.141v306.709c0 34.603-28.053 62.677-62.677 62.677h-50.923v-66.603c0-36.715-29.867-66.581-66.581-66.581h-23.509c-36.715 0-66.581 29.867-66.581 66.581v66.603h-274.133v-66.603c0-36.715-29.867-66.581-66.581-66.581h-23.509c-36.715 0-66.581 29.867-66.581 66.581v66.603h-50.901c-34.624 0-62.677-28.075-62.677-62.677v-595.349c0-34.581 28.053-62.677 62.677-62.677h405.333zM304.32 511.765c0-34.345-27.842-62.187-62.187-62.187s-62.187 27.842-62.187 62.187c0 34.345 27.842 62.187 62.187 62.187s62.187-27.842 62.187-62.187zM490.859 511.765c0-34.345-27.842-62.187-62.187-62.187s-62.187 27.842-62.187 62.187c0 34.345 27.842 62.187 62.187 62.187s62.187-27.842 62.187-62.187zM677.376 511.765c0-34.345-27.842-62.187-62.187-62.187s-62.187 27.842-62.187 62.187c0 34.345 27.842 62.187 62.187 62.187s62.187-27.842 62.187-62.187zM490.837 323.755c0-34.333-27.832-62.165-62.165-62.165s-62.165 27.832-62.165 62.165c0 34.333 27.832 62.165 62.165 62.165s62.165-27.832 62.165-62.165zM304.299 323.755c0-34.333-27.832-62.165-62.165-62.165s-62.165 27.832-62.165 62.165c0 34.333 27.832 62.165 62.165 62.165s62.165-27.832 62.165-62.165zM814.677 444.544c-17.621 4.075-35.968 6.293-54.827 6.293-5.269 0-10.475-0.213-15.659-0.533-120.32-7.659-216.747-102.912-226.304-222.699-0.512-6.464-0.853-12.949-0.853-19.584 0-20.245 2.517-39.915 7.211-58.752 26.261-105.707 121.771-184.085 235.627-184.085 134.059-0.021 242.795 108.693 242.795 242.816 0 115.243-80.32 211.669-187.989 236.544zM759.829 47.424c-88.683 0-160.576 71.915-160.576 160.576 0 88.704 71.893 160.576 160.576 160.576s160.576-71.872 160.576-160.576c0.021-88.661-71.893-160.576-160.576-160.576zM736.341 82.667c82.261 0 148.843 66.581 148.843 148.843h-148.843v-148.843zM203.669 775.936c15.104 0 27.413 12.288 27.413 27.413v129.237c0 15.125-12.309 27.413-27.413 27.413h-23.509c-15.125 0-27.413-12.288-27.413-27.413v-129.28c0-15.104 12.288-27.413 27.413-27.413h23.509zM634.496 775.936c15.125 0 27.413 12.288 27.413 27.413v129.237c0 15.125-12.288 27.413-27.413 27.413h-23.509c-15.125 0-27.413-12.288-27.413-27.413v-129.28c0-15.104 12.288-27.413 27.413-27.413h23.509zM468.011 149.248c-3.84 19.008-5.845 38.677-5.845 58.752 0 6.592 0.299 13.12 0.704 19.584h-345.365c-25.963 0-46.997 21.035-46.997 46.997v376.021h673.664v-145.344c5.184 0.277 10.411 0.427 15.659 0.427 18.731 0 37.035-1.835 54.827-5.141v306.709c0 34.603-28.053 62.677-62.677 62.677h-50.923v-66.603c0-36.715-29.867-66.581-66.581-66.581h-23.509c-36.715 0-66.581 29.867-66.581 66.581v66.603h-274.133v-66.603c0-36.715-29.867-66.581-66.581-66.581h-23.509c-36.715 0-66.581 29.867-66.581 66.581v66.603h-50.901c-34.624 0-62.677-28.075-62.677-62.677v-595.349c0-34.581 28.053-62.677 62.677-62.677h405.333zM282.987 533.099c0-34.345-27.842-62.187-62.187-62.187s-62.187 27.842-62.187 62.187c0 34.345 27.842 62.187 62.187 62.187s62.187-27.842 62.187-62.187zM469.525 533.099c0-34.345-27.842-62.187-62.187-62.187s-62.187 27.842-62.187 62.187c0 34.345 27.842 62.187 62.187 62.187s62.187-27.842 62.187-62.187zM656.043 533.099c0-34.345-27.842-62.187-62.187-62.187s-62.187 27.842-62.187 62.187c0 34.345 27.842 62.187 62.187 62.187s62.187-27.842 62.187-62.187zM469.504 345.088c0-34.333-27.832-62.165-62.165-62.165s-62.165 27.832-62.165 62.165c0 34.333 27.832 62.165 62.165 62.165s62.165-27.832 62.165-62.165zM282.965 345.088c0-34.333-27.832-62.165-62.165-62.165s-62.165 27.832-62.165 62.165c0 34.333 27.832 62.165 62.165 62.165s62.165-27.832 62.165-62.165z" />
<glyph unicode="&#xe62f;" d="M106.667 938.667v-838.336l162.133-164.331h648.533v1002.667h-810.667zM852.501 1.728h-535.061v147.925h-145.92v723.264h680.981v-871.189zM593.941 133.205h65.493v32.896h-65.493v49.323h81.877v32.875h-114.667v-197.248h32.811l-0.021 82.155zM675.819 51.051h28.075c2.027 0 3.712 0.597 5.077 1.856 1.344 1.237 2.453 2.539 3.392 4.032l27.584 45.781 27.691-45.781c0.981-1.536 2.133-2.923 3.52-4.096s3.221-1.792 5.547-1.792h30.208l-44.715 69.184 42.944 62.293h-28.821c-1.621 0-2.944-0.363-4.096-1.173-1.088-0.747-2.176-1.963-3.2-3.563l-25.835-43.285-27.307 43.925c-0.853 1.472-1.813 2.517-2.923 3.157s-2.837 0.981-5.099 0.981h-30.229l42.816-63.701-44.629-67.819zM237.227 281.621h280.597v-64.277h-280.597v64.277zM231.381 640.832v-140.885h561.259v140.885h-561.259zM761.429 531.243h-498.859v78.272h498.88v-78.272zM231.381 813.035v-140.907h561.259v140.907h-561.259zM761.429 703.445h-498.859v78.293h498.88v-78.293zM231.381 468.629v-156.544h561.259v156.544h-561.259zM761.429 343.403h-498.859v93.909h498.88v-93.909zM85.333 960v-838.336l162.133-164.331h648.533v1002.667h-810.667zM831.168 23.061h-535.061v147.925h-145.92v723.264h680.981v-871.189zM572.608 154.539h65.493v32.896h-65.493v49.323h81.877v32.875h-114.667v-197.248h32.811l-0.021 82.155zM654.485 72.384h28.075c2.027 0 3.712 0.597 5.077 1.856 1.344 1.237 2.453 2.539 3.392 4.032l27.584 45.781 27.691-45.781c0.981-1.536 2.133-2.923 3.52-4.096s3.221-1.792 5.547-1.792h30.208l-44.715 69.184 42.944 62.293h-28.821c-1.621 0-2.944-0.363-4.096-1.173-1.088-0.747-2.176-1.963-3.2-3.563l-25.835-43.285-27.307 43.925c-0.853 1.472-1.813 2.517-2.923 3.157s-2.837 0.981-5.099 0.981h-30.229l42.816-63.701-44.629-67.819zM215.893 302.955h280.597v-64.277h-280.597v64.277zM210.048 662.165v-140.885h561.259v140.885h-561.259zM740.096 552.576h-498.859v78.272h498.88v-78.272zM210.048 834.368v-140.907h561.259v140.907h-561.259zM740.096 724.779h-498.859v78.293h498.88v-78.293zM210.048 489.963v-156.544h561.259v156.544h-561.259zM740.096 364.736h-498.859v93.909h498.88v-93.909z" />
<glyph unicode="&#xe630;" d="M1024 629.248c0-170.624-138.795-309.419-309.44-309.419v-323.456c0-28.437-23.168-51.605-51.627-51.605h-589.973c-28.459-0.043-51.627 23.147-51.627 51.584v540.864c0 0.811 0.213 1.557 0.235 2.347v89.685c0 10.923 14.101 19.797 31.509 19.797h56.277v36.949c0 32.725 26.603 59.328 59.307 59.328s59.307-26.603 59.307-59.328v-36.949h92.885v36.949c0 32.725 26.603 59.328 59.328 59.328 16.149 0 30.613-6.656 41.259-17.152 41.365 122.219 157.099 210.496 293.12 210.496 170.645 0 309.44-138.816 309.44-309.419zM350.4 649.024h55.467c0.747 11.648 2.155 23.125 4.139 34.411v2.539c0 16.448-13.376 29.803-29.781 29.803-16.448 0-29.803-13.376-29.803-29.803v-36.949h-0.021zM138.837 649.024h59.627v36.949c0 16.448-13.376 29.803-29.803 29.803s-29.824-13.376-29.824-29.803v-36.949zM670.379 323.029c-78.528 11.285-147.627 52.16-195.605 110.933h-409.195v-437.611c0-4.053 3.328-7.36 7.381-7.36h590.016c4.032 0 7.403 3.285 7.403 7.36v326.677zM973.589 629.248c0 142.805-116.203 259.008-259.029 259.008s-259.008-116.203-259.008-259.008c0-142.805 116.181-259.008 259.008-259.008s259.029 116.203 259.029 259.008zM892.053 754.027c-9.045 10.624-24.96 11.861-35.52 2.859l-144.917-123.499-150.955 85.291c-12.075 6.848-27.499 2.56-34.347-9.557-6.827-12.117-2.539-27.499 9.557-34.347l166.272-93.952c3.883-2.197 8.149-3.264 12.395-3.264 5.845 0 11.691 2.048 16.341 6.016l158.336 134.933c10.645 9.024 11.883 24.939 2.837 35.52zM1002.667 650.581c0-170.624-138.795-309.419-309.44-309.419v-323.456c0-28.437-23.168-51.605-51.627-51.605h-589.973c-28.459-0.043-51.627 23.147-51.627 51.584v540.864c0 0.811 0.213 1.557 0.235 2.347v89.685c0 10.923 14.101 19.797 31.509 19.797h56.277v36.949c0 32.725 26.603 59.328 59.307 59.328s59.307-26.603 59.307-59.328v-36.949h92.885v36.949c0 32.725 26.603 59.328 59.328 59.328 16.149 0 30.613-6.656 41.259-17.152 41.365 122.219 157.099 210.496 293.12 210.496 170.645 0 309.44-138.816 309.44-309.419zM329.067 670.357h55.467c0.747 11.648 2.155 23.125 4.139 34.411v2.539c0 16.448-13.376 29.803-29.781 29.803-16.448 0-29.803-13.376-29.803-29.803v-36.949h-0.021zM117.504 670.357h59.627v36.949c0 16.448-13.376 29.803-29.803 29.803s-29.824-13.376-29.824-29.803v-36.949zM649.045 344.363c-78.528 11.285-147.627 52.16-195.605 110.933h-409.195v-437.611c0-4.053 3.328-7.36 7.381-7.36h590.016c4.032 0 7.403 3.285 7.403 7.36v326.677zM952.256 650.581c0 142.805-116.203 259.008-259.029 259.008s-259.008-116.203-259.008-259.008c0-142.805 116.181-259.008 259.008-259.008s259.029 116.203 259.029 259.008zM870.72 775.36c-9.045 10.624-24.96 11.861-35.52 2.859l-144.917-123.499-150.955 85.291c-12.075 6.848-27.499 2.56-34.347-9.557-6.827-12.117-2.539-27.499 9.557-34.347l166.272-93.952c3.883-2.197 8.149-3.264 12.395-3.264 5.845 0 11.691 2.048 16.341 6.016l158.336 134.933c10.645 9.024 11.883 24.939 2.837 35.52zM285.867 338.603h-39.381l-85.483-72.683 15.125-20.8c1.024-1.365 2.603-2.624 4.736-3.733 2.112-1.131 4.459-1.621 7.083-1.621 1.664 0 3.392 0.213 5.141 0.768 1.728 0.491 3.435 1.451 5.12 2.901l40.32 33.685c-0.384-6.912-0.576-13.611-0.576-19.947v-163.413h-56.789v-35.883h155.093v35.883h-50.389v244.843zM532.608 181.952c-8.299 10.901-20.821 18.923-37.611 24.277 6.976 2.24 13.184 5.205 18.667 8.725 5.525 3.499 10.176 7.68 13.995 12.757 3.797 5.035 6.699 10.987 8.704 17.749s3.008 14.635 3.008 23.573c0 10.219-1.963 19.712-5.909 28.48-3.925 8.768-9.579 16.448-16.939 22.955-7.403 6.571-16.277 11.669-26.645 15.339-10.411 3.669-22.101 5.525-35.051 5.525-12.416 0-23.979-1.707-34.795-5.12-10.795-3.456-20.352-8.576-28.672-15.339-8.363-6.784-15.296-15.317-20.864-25.387-5.547-10.176-9.301-21.973-11.243-35.413l25.195-4.373c2.304-0.405 4.523-0.533 6.592-0.533 4.395 0 7.957 1.003 10.667 3.157 2.731 2.133 4.864 5.632 6.379 10.517 3.008 9.429 8.213 17.173 15.723 23.168 7.488 5.995 16.96 9.024 28.288 9.024 12.565 0 22.464-3.413 29.696-10.197 7.211-6.763 10.837-16.853 10.837-30.123 0-6.208-0.896-11.968-2.688-17.109-1.813-5.184-5.013-9.6-9.621-13.248-4.587-3.733-10.731-6.592-18.496-8.64-7.787-2.048-17.515-3.115-29.312-3.115v-34.304c14.251 0 25.579-1.109 34.048-3.285 8.469-2.219 14.933-5.205 19.477-9.088 4.501-3.904 7.488-8.576 8.939-14.101 1.408-5.483 2.112-11.563 2.112-18.283 0-5.333-0.981-10.581-2.987-15.787-2.005-5.291-5.035-10.027-9.109-14.251-4.075-4.245-9.131-7.723-15.189-10.389-6.101-2.603-13.205-3.989-21.333-3.989-7.232 0-13.461 1.088-18.688 3.179-5.269 2.176-9.813 4.928-13.675 8.341-3.904 3.456-7.211 7.36-10.005 11.755-2.773 4.395-5.333 8.896-7.659 13.376-1.429 2.731-3.456 4.779-6.123 6.208-2.645 1.387-5.632 2.133-8.981 2.133-3.755 0-7.445-0.768-11.051-2.325l-21.141-8.725c3.861-11.989 8.512-22.592 13.952-31.744 5.44-9.237 12.011-16.939 19.797-23.275 7.744-6.336 16.853-11.157 27.307-14.379 10.475-3.221 22.763-4.843 36.864-4.843 12.907 0 25.152 1.877 36.757 5.589 11.563 3.797 21.717 9.323 30.549 16.597 8.768 7.317 15.744 16.341 20.885 27.093 5.163 10.688 7.787 23.019 7.787 37.013-0.043 16.341-4.203 29.995-12.437 40.832zM264.533 359.936h-39.381l-85.483-72.683 15.125-20.8c1.024-1.365 2.603-2.624 4.736-3.733 2.112-1.131 4.459-1.621 7.083-1.621 1.664 0 3.392 0.213 5.141 0.768 1.728 0.491 3.435 1.451 5.12 2.901l40.32 33.685c-0.384-6.912-0.576-13.611-0.576-19.947v-163.413h-56.789v-35.883h155.093v35.883h-50.389v244.843zM511.275 203.285c-8.299 10.901-20.821 18.923-37.611 24.277 6.976 2.24 13.163 5.205 18.688 8.725 5.504 3.499 10.155 7.68 13.995 12.757 3.797 5.035 6.699 10.987 8.704 17.749s3.008 14.635 3.008 23.573c0 10.219-1.963 19.712-5.909 28.48-3.925 8.768-9.579 16.448-16.939 22.955-7.403 6.571-16.277 11.669-26.645 15.339-10.432 3.669-22.123 5.525-35.072 5.525-12.416 0-23.979-1.707-34.795-5.12-10.795-3.456-20.352-8.576-28.672-15.339-8.363-6.784-15.296-15.317-20.864-25.387-5.547-10.176-9.301-21.973-11.243-35.413l25.195-4.373c2.304-0.405 4.523-0.533 6.592-0.533 4.395 0 7.957 1.003 10.667 3.157 2.731 2.133 4.864 5.632 6.379 10.517 3.008 9.429 8.213 17.173 15.723 23.168 7.488 5.995 16.96 9.024 28.288 9.024 12.565 0 22.464-3.413 29.696-10.197 7.211-6.763 10.837-16.853 10.837-30.123 0-6.208-0.896-11.968-2.688-17.109-1.813-5.184-5.013-9.6-9.621-13.248-4.587-3.733-10.731-6.592-18.496-8.64-7.787-2.048-17.515-3.115-29.312-3.115v-34.304c14.251 0 25.579-1.109 34.048-3.285 8.469-2.219 14.933-5.205 19.477-9.088 4.501-3.904 7.488-8.576 8.939-14.101 1.408-5.483 2.112-11.563 2.112-18.283 0-5.333-0.981-10.581-2.987-15.787-2.005-5.291-5.035-10.027-9.109-14.251-4.075-4.245-9.131-7.723-15.189-10.389-6.101-2.603-13.205-3.989-21.333-3.989-7.232 0-13.461 1.088-18.688 3.179-5.269 2.176-9.813 4.928-13.675 8.341-3.904 3.456-7.211 7.36-10.005 11.755-2.773 4.395-5.333 8.896-7.659 13.376-1.429 2.731-3.456 4.779-6.123 6.208-2.645 1.387-5.632 2.133-8.981 2.133-3.755 0-7.445-0.768-11.051-2.325l-21.141-8.725c3.861-11.989 8.512-22.592 13.952-31.744 5.44-9.237 12.011-16.939 19.797-23.275 7.744-6.336 16.853-11.157 27.307-14.379 10.475-3.221 22.763-4.843 36.864-4.843 12.907 0 25.152 1.877 36.757 5.589 11.563 3.797 21.717 9.323 30.528 16.597 8.789 7.317 15.765 16.341 20.885 27.093 5.163 10.688 7.787 23.019 7.787 37.013-0.021 16.341-4.181 29.995-12.416 40.832z" />
<glyph unicode="&#xe631;" d="M866.283 735.339h-114.837v-2.56c0 36.949-29.931 66.901-66.859 66.901h-31.957c-0.896 65.259-54.059 117.653-119.339 117.653-65.259 0-118.421-52.395-119.339-117.675h-31.957c-36.907 0-66.859-29.931-66.859-66.901v2.56h-114.859c-23.915 0-44.011-19.328-44.011-43.264v-712.747c0-23.957 20.096-43.307 44.011-43.307h666.069c23.936 0 44.053 19.349 44.053 43.307v712.768c-0.043 23.915-20.16 43.264-44.117 43.264zM533.291 854.784c30.805 0 55.915-24.555 56.832-55.125h-113.685c0.939 30.571 26.069 55.125 56.853 55.125zM855.296-10.901h-643.989v693.248h103.851v-48.939h436.309v48.939h103.829v-693.248zM733.269 479.723l-8.043 8.149c-17.877 17.941-46.784 17.941-64.64 0l-177.749-179.072-76.757 77.312c-17.835 17.984-46.784 17.984-64.64 0l-8.085-8.149c-17.835-17.984-17.835-47.104 0-65.109l117.163-118.016c17.856-18.005 46.784-18.005 64.64 0l218.112 219.755c17.877 17.984 17.877 47.125 0 65.131zM844.949 756.672h-114.837v-2.56c0 36.949-29.931 66.901-66.859 66.901h-31.957c-0.896 65.259-54.059 117.653-119.317 117.653s-118.421-52.395-119.339-117.675h-31.957c-36.907 0-66.859-29.931-66.859-66.901v2.56h-114.88c-23.915 0-44.011-19.328-44.011-43.264v-712.747c0-23.957 20.096-43.307 44.011-43.307h666.069c23.936 0 44.053 19.349 44.053 43.307v712.768c-0.043 23.915-20.16 43.264-44.117 43.264zM511.979 876.117c30.805 0 55.915-24.555 56.832-55.125h-113.685c0.917 30.571 26.048 55.125 56.853 55.125zM833.963 10.432h-643.989v693.248h103.851v-48.939h436.309v48.939h103.829v-693.248zM711.936 501.056l-8.043 8.149c-17.877 17.941-46.784 17.941-64.64 0l-177.749-179.072-76.757 77.312c-17.835 17.984-46.784 17.984-64.64 0l-8.085-8.149c-17.835-17.984-17.835-47.104 0-65.109l117.163-118.016c17.856-18.005 46.784-18.005 64.64 0l218.112 219.755c17.877 17.984 17.877 47.125 0 65.131z" />
<glyph unicode="&#xe632;" d="M776.858 870.4h-572.058c-56.371 0-102.4-46.080-102.4-102.4v-614.4c0-56.32 46.029-102.4 102.4-102.4h614.4c56.371 0 102.4 46.080 102.4 102.4v556.698l-144.742 160.102zM716.8 563.2c0-28.109-23.040-51.2-51.2-51.2h-307.2c-28.16 0-51.2 23.091-51.2 51.2v256h409.6v-256zM665.6 768h-102.4v-204.8h102.4v204.8z" />
<glyph unicode="&#xe633;" d="M896-64h-768c-70.656 0-128 57.344-128 128v768c0 70.656 57.344 128 128 128h768c70.656 0 128-57.344 128-128v-768c0-70.656-57.344-128-128-128zM896 768c0 35.328-28.608 64-64 64h-640c-35.392 0-64-28.672-64-64v-448c0-35.392 28.608-64 64-64h64c63.616 0 64-64 64-64v-64c0-35.392 28.608-64 64-64h256c35.392 0 64 28.608 64 64v64c0 0 8.704 64 64 64h64c35.392 0 64 28.608 64 64v448zM256 448h192v256h128v-256h192l-256-256-256 256z" />
<glyph unicode="&#xe634;" d="M736 512l-256-256-256 256h160v384h192v-384zM480 256h-480v-256h960v256h-480zM896 128h-128v64h128v-64z" />
<glyph unicode="&#xe635;" d="M896 960h-896v-1024h1024v896l-128 128zM512 832h128v-256h-128v256zM896 64h-768v768h64v-320h576v320h74.978l53.022-53.018v-714.982z" />
<glyph unicode="&#xe636;" d="M219.429 73.143h438.857v219.429h-438.857v-219.429zM731.429 73.143h73.143v512q0 8-5.714 22t-11.429 19.714l-160.571 160.571q-5.714 5.714-19.429 11.429t-22.286 5.714v-237.714q0-22.857-16-38.857t-38.857-16h-329.143q-22.857 0-38.857 16t-16 38.857v237.714h-73.143v-731.429h73.143v237.714q0 22.857 16 38.857t38.857 16h475.429q22.857 0 38.857-16t16-38.857v-237.714zM512 603.428v182.857q0 7.429-5.429 12.857t-12.857 5.429h-109.714q-7.429 0-12.857-5.429t-5.429-12.857v-182.857q0-7.429 5.429-12.857t12.857-5.429h109.714q7.429 0 12.857 5.429t5.429 12.857zM877.714 585.143v-530.286q0-22.857-16-38.857t-38.857-16h-768q-22.857 0-38.857 16t-16 38.857v768q0 22.857 16 38.857t38.857 16h530.286q22.857 0 50.286-11.429t43.429-27.429l160-160q16-16 27.429-43.429t11.429-50.286z" />
<glyph unicode="&#xe637;" d="M640 469.334v469.333h-213.333v-469.333h-168.661l271.488-271.531 271.488 271.531zM860.16 640h-134.827v-85.333h134.827c23.509 0 35.84-0.683 35.84-24.149v-320c0-35.328-21.931-82.517-57.173-82.517h-653.568c-35.243 0-57.173 47.189-57.173 82.517v320c0 23.467 12.331 24.149 35.84 24.149h134.827v85.333h-134.827c-70.571 0-121.173-38.912-121.173-109.483v-469.333c0-70.571 50.603-146.517 121.173-146.517h696.235c70.571 0 121.173 75.904 121.173 146.517v469.333c0 70.571-50.603 109.483-121.173 109.483zM896 61.184c0-23.509-12.331-61.184-35.84-61.184h-696.235c-23.509 0-35.84 37.675-35.84 61.184v64.555c0-13.525 33.067-40.363 57.173-40.363h653.568c24.064 0 57.173 26.837 57.173 40.363v-64.555z" />
</font>
</defs>
</svg>
